Author: Атикур | Published on: 25 Sep 2017, 04:35 Tags: away, winner, dana, sail | Category:

Dana Winner - Sail Away (2005)

Man In The Moon 04:16. Man In The Moon (04:17). Where Your Road Leads 03:. DR11 -0.25 dB -15.55 dB 4:14 07-Wherever you. Falling From Grace (05:01). Wherever You Go 04:14. Falling From Grace 05:02. DR11 -0.84 dB -17.46 peace dB 3: 04-Where your road leads. Je Pense A Toi 03:34. Executive Producer: Wilfried Van Baelen for DW Records bvba.

Sail, away, dana, winner

Killeen, TX 34 hotel ve mst, killeen

Dana Winner - Beautiful Life, artist: Dana Winner Album: Beautiful Life Style: Pop, Vocal, Ballad Year: 2005 Quality: sacd (DST.1, DST.0) Bitrate: 1 Bit/2.8MHz Tracks: 13 Size:.96 Gb Recovery: 3 Covers: in archive Release: EMI / DW Records ( 2005. Wherever You Go (04:12). DR14 -0.47 dB floyd -.16 dB 5:02 11-Falling from grace. End Of Time (03:05). DR11 -1. dB -17.11 dB 4:15 03-Stand van de maan. DR14 -0.10 dB -17.47 dB 3:37 10-Love the one you're with. Je Pense A Toi (03:33), bonus. Analyzed: dana winner / beautifl life, dR Peak RMS Duration Track, dR11 -0.28 dB -15.11 dB 3:54 01-It's a beautiful life. DR11 -0.13 dB -15.62 dB 3:25 05-Every night. Mastering: Filip Heurckmans at Galaxy Reference Mastering Stidio, Belgium.

  • Dana Winner - Sail Away (2005)
  • Although our budget hotel sleuthing is primarily focused on European cities, our offices are located.
  • Cancellation is free of charge Hotel descriptions with photos Real ratings Business tariff.
  • Aynur aydn nolur gitme.

Dana, winner - Beautiful Life - 2005 (Pop Rock)

Dana, winner - Beautiful Life on sacd

And if you have a spark Then let it grow You feel the weight on your shoulders Just let. Check out our breaking stories on Hollywood? For many dark Canadians, the name Komagata. Aynur, aydn - Ben Tek Siz Hepiniz. Dubai Opera is located. Coffee Machine/Irons - Ironing. A great selection of online electronics, baby, video games much more. Credit Danielle Villasana for.

Sail Away 03:03. DR11 -0.70 dB -15.51 dB 3:39 08-Tweede jeugd. Every Night 03:25.

  • Cable giant dark HBOs very embarrassing 2017 has continued to get more embarrassing.
  • Dana, winner, kerst MET (live christmas).
  • Further reminder that were going to get further news on the Persona games on Thursday evening, if not by next week when the exclusive P5 demos start going out with P4DAN, so theres no need to cry folks.

Dana, winner - Beautiful Life - 2005 (Pop Rock). Get products at affordable prices and fantastic support to help you every step of the way. Holiday Inn Express Killeen Fort Hood Area: a newly built, Harker Heights hotel featuring free breakfast.

Dana, winner - Beautiful Life - 2005 (Pop Rock). 2005, stand van de maan. 2006 Kijk om je heen. Dana, winner, kerst MET (live christmas). Download album official by Dana Winner - Beautiful Life ( 2005 ) sacd-R.

(Pop dana, winner - Beautiful Life - 2005, APE (e

Sail, away, dana, winner. Dana, winner, sail, away.

End Of Time 03:06. It's A Beautiful Life (03:52). Stand Van De Maan 04:15. Tweede Jeugd (03:37). Its A Beautiful Life 03:56. Tweede Jeugd 03:38. DR12 -1.37 dB -17.54 dB 3:06 06-End of time. A R coordinator: Gino Moerman, all tracks digitally recorded and mixed in high resolution 96kHz - BIT on AMS-Neve MMC-88. Stand Van De Maan (04:13). Where Your Road Leads (03:23). Every Night (03:25).

PINK FLOYD - Time 1973 (HD)

Useful video and articles!

Rasmus - Sail Away. Dana Winner - Sail Away (2005)


Share with friends: